osu file format v14

[General]
AudioFilename: raja_ffm_-_the_light.mp3
AudioLeadIn: 1500
PreviewTime: 105641
Countdown: 0
SampleSet: Soft
StackLeniency: 0.7
Mode: 0
LetterboxInBreaks: 0
WidescreenStoryboard: 0

[Editor]
Bookmarks: 21474,42807,58807,64141,85474,106807,117474,128141
DistanceSpacing: 1.1
BeatDivisor: 4
GridSize: 4
TimelineZoom: 1

[Metadata]
Title:the light
TitleUnicode:the light
Artist:raja
ArtistUnicode:raja
Creator:Shadren
Version:Normal
Source:
Tags:snowflake emily richards ralf jacobsen remix winter mbc8 Monthly Mapping Contest 8
BeatmapID:676508
BeatmapSetID:301731

[Difficulty]
HPDrainRate:4
CircleSize:3
OverallDifficulty:4
ApproachRate:4
SliderMultiplier:1.5
SliderTickRate:2

[Events]
//Background and Video events
0,0,"BG.jpg",0,0
//Break Periods
//Storyboard Layer 0 (Background)
//Storyboard Layer 1 (Fail)
//Storyboard Layer 2 (Pass)
//Storyboard Layer 3 (Foreground)
//Storyboard Sound Samples

[TimingPoints]
10807,666.666666666667,4,2,0,50,1,0
42807,-100,4,2,0,50,0,1
58140,-100,4,2,0,50,0,0
61474,-100,4,2,0,30,0,0
64141,-100,4,2,0,50,0,0
106807,-100,4,2,0,50,0,1
128140,-100,4,2,0,50,0,0
128807,-100,4,2,0,45,0,0
129474,-100,4,2,0,35,0,0
130141,-100,4,2,0,25,0,0
130807,-100,4,2,0,15,0,0

[Colours]
Combo1 : 210,166,255
Combo2 : 66,160,255
Combo3 : 160,205,250
Combo4 : 7,206,235

[HitObjects]
336,136,21474,6,0,B|340:191|294:236|240:232,1,150,4|8,0:3|0:0,0:0:0:0:
88,180,22807,2,0,L|84:100,2,75,0|4|8,0:0|0:3|0:0,0:0:0:0:
52,256,23807,1,2,0:0:0:0:
92,328,24141,2,0,B|133:369|196:370|239:337,1,150,4|8,0:3|0:0,0:0:0:0:
300,300,25141,1,0,0:0:0:0:
352,236,25474,2,0,L|360:152,1,75,0|4,0:0|0:3,0:0:0:0:
289,116,26141,2,0,L|281:32,1,75,8|0,0:0|0:0,0:0:0:0:
200,28,26807,6,0,B|185:79|133:108|84:98,1,150,4|8,0:3|0:0,0:0:0:0:
52,176,27807,2,0,L|64:340,1,150,0|4,0:0|0:3,0:0:0:0:
141,354,28807,1,8,0:0:0:0:
184,192,29474,2,0,B|231:157|296:168|331:211,1,150,4|8,0:3|0:0,0:0:0:0:
384,256,30474,1,0,0:0:0:0:
464,248,30807,1,0,0:0:0:0:
504,176,31141,2,0,L|496:84,1,75,8|8,0:0|0:0,0:0:0:0:
344,44,32141,5,4,0:3:0:0:
280,96,32474,2,0,B|248:101|218:96|191:84,1,75,0|8,0:0|0:0,0:0:0:0:
124,68,33141,2,0,L|136:232,1,150,0|4,0:0|0:3,0:0:0:0:
200,268,34141,1,8,0:0:0:0:
240,108,34807,2,0,B|268:94|297:92|324:100,1,75,4|0,0:3|0:0,0:0:0:0:
392,128,35474,1,8,0:0:0:0:
444,192,35807,2,0,L|436:348,1,150,0|4,0:0|0:3,0:0:0:0:
360,372,36807,2,0,B|331:379|302:372|280:356,1,75,8|2,0:0|0:0,0:0:0:0:
212,328,37474,6,0,B|163:300|106:302|61:328,1,150,4|8,0:3|0:0,0:0:0:0:
4,376,38474,2,0,L|8:220,1,150,0|4,0:0|0:3,0:0:0:0:
65,166,39474,1,8,0:0:0:0:
136,208,39807,2,0,B|182:243|248:232|280:185,1,150,2|0,0:0|0:0,0:0:0:0:
328,132,40807,1,8,0:0:0:0:
408,152,41141,2,0,L|420:312,1,150,0|8,0:0|0:0,0:0:0:0:
348,344,42141,1,8,0:0:0:0:
272,200,42807,6,0,B|250:147|186:125|136:152,1,150,4|8,0:3|0:0,0:0:0:0:
72,184,43807,2,0,L|84:348,1,150,0|4,0:0|0:3,0:0:0:0:
160,360,44807,2,0,B|190:367|219:358|240:340,1,75,8|2,0:0|0:0,0:0:0:0:
264,272,45474,2,0,B|267:223|308:185|360:185|394:211,1,150,4|8,0:3|0:0,0:0:0:0:
448,228,46474,1,0,0:0:0:0:
460,308,46807,1,0,0:0:0:0:
408,372,47141,2,0,L|324:368,1,75,8|8,0:0|0:0,0:0:0:0:
276,308,47807,1,2,0:0:0:0:
204,348,48141,6,0,B|167:369|121:362|90:333|80:297,1,150,4|8,0:3|0:0,0:0:0:0:
64,220,49141,2,0,L|72:56,1,150,0|4,0:0|0:3,0:0:0:0:
144,28,50141,1,8,0:0:0:0:
208,80,50474,2,0,B|253:118|320:110|356:65,1,150,2|0,0:0|0:0,0:0:0:0:
413,28,51474,1,8,0:0:0:0:
484,72,51807,2,0,L|484:228,1,150,0|8,0:0|0:0,0:0:0:0:
432,288,52807,2,0,B|401:304|366:304|336:292,1,75,8|2,0:0|0:0,0:0:0:0:
284,264,53474,6,0,B|248:219|182:214|140:252,1,150,4|8,0:3|0:0,0:0:0:0:
80,288,54474,1,0,0:0:0:0:
8,248,54807,2,0,L|12:96,1,150,0|8,0:0|0:0,0:0:0:0:
76,44,55807,1,2,0:0:0:0:
160,36,56141,2,0,B|202:27|243:46|264:82|264:119,1,150,4|8,0:3|0:0,0:0:0:0:
276,200,57141,2,0,B|275:233|287:263|307:285,1,75,0|0,0:0|0:0,0:0:0:0:
373,299,57807,1,8,0:0:0:0:
451,273,58141,1,8,0:0:0:0:
256,192,58807,12,0,61474,0:0:0:0:
468,132,64141,6,0,B|423:130|383:159|370:203|381:241,1,150,4|8,0:3|0:0,0:0:0:0:
312,276,65141,2,0,L|236:268,1,75,0|0,0:0|0:0,0:0:0:0:
160,296,65807,1,4,0:3:0:0:
100,352,66141,2,0,B|71:355|45:340|32:316,1,75,8|2,0:0|0:0,0:0:0:0:
36,240,66807,2,0,B|66:195|67:140|44:97,1,150,4|8,0:3|0:0,0:0:0:0:
100,36,67807,2,0,L|180:28,1,75,0|0,0:0|0:0,0:0:0:0:
248,64,68474,1,8,0:0:0:0:
300,128,68807,2,0,B|308:156|305:185|292:208,1,75,8|2,0:0|0:0,0:0:0:0:
228,248,69474,6,0,B|254:288|307:300|350:275|367:237,1,150,4|8,0:3|0:0,0:0:0:0:
399,183,70474,1,0,0:0:0:0:
376,104,70807,2,0,L|224:92,1,150,0|8,0:0|0:0,0:0:0:0:
152,132,71807,1,2,0:0:0:0:
104,200,72141,2,0,B|86:242|99:290|132:320|171:328,1,150,4|8,0:3|0:0,0:0:0:0:
240,332,73141,2,0,L|316:324,1,75,0|0,0:0|0:0,0:0:0:0:
372,268,73807,1,8,0:0:0:0:
456,268,74141,1,8,0:0:0:0:
412,108,74807,6,0,B|382:61|321:48|275:75,1,150,4|8,0:3|0:0,0:0:0:0:
224,132,75807,1,0,0:0:0:0:
168,192,76141,2,0,L|88:188,1,75,0|4,0:0|0:3,0:0:0:0:
100,272,76807,2,0,L|174:275,1,75,8|2,0:0|0:0,0:0:0:0:
244,320,77474,2,0,B|291:353|354:339|384:293,1,150,4|8,0:3|0:0,0:0:0:0:
416,224,78474,2,0,L|424:140,1,75,0|0,0:0|0:0,0:0:0:0:
360,96,79141,1,4,0:3:0:0:
284,128,79474,1,8,0:0:0:0:
220,280,80141,6,0,B|173:310|113:298|81:257,1,150,4|8,0:3|0:0,0:0:0:0:
32,196,81141,2,0,L|40:108,1,75,0|0,0:0|0:0,0:0:0:0:
108,72,81807,1,4,0:3:0:0:
188,88,82141,2,0,B|216:95|243:88|264:72,1,75,8|2,0:0|0:0,0:0:0:0:
320,20,82807,2,0,L|312:172,1,150,4|8,0:3|0:0,0:0:0:0:
372,228,83807,1,0,0:0:0:0:
440,180,84141,1,0,0:0:0:0:
504,232,84474,2,0,B|514:261|510:292|496:316,1,75,8|8,0:0|0:0,0:0:0:0:
336,304,85474,6,0,B|302:293|284:258|292:225,1,75,4|0,0:3|0:0,0:0:0:0:
300,168,86141,1,8,0:0:0:0:
264,92,86474,2,0,B|226:43|157:37|111:74,1,150,0|4,0:0|0:3,0:0:0:0:
60,108,87474,1,8,0:0:0:0:
28,184,87807,2,0,L|40:340,1,150,2|0,0:0|0:0,0:0:0:0:
120,360,88807,1,8,0:0:0:0:
188,312,89141,2,0,B|217:298|248:296|276:304,1,75,0|0,0:0|0:0,0:0:0:0:
340,328,89807,1,4,0:3:0:0:
416,360,90141,2,0,L|496:348,1,75,8|2,0:0|0:0,0:0:0:0:
512,268,90807,6,0,B|477:224|475:166|500:121,1,150,4|8,0:3|0:0,0:0:0:0:
428,80,91807,2,0,B|392:67|354:77|354:77|305:92|272:72,1,150,0|4,0:0|0:3,0:0:0:0:
208,36,92807,1,8,0:0:0:0:
148,96,93141,2,0,B|122:148|57:166|8:136,1,150,2|0,0:0|0:0,0:0:0:0:
4,224,94141,2,0,B|34:224|61:237|80:256,1,75,8|0,0:0|0:0,0:0:0:0:
132,308,94807,1,0,0:0:0:0:
184,372,95141,2,0,L|264:364,1,75,8|8,0:0|0:0,0:0:0:0:
380,252,96141,5,4,0:3:0:0:
324,192,96474,2,0,B|312:165|313:136|324:112,1,75,0|8,0:0|0:0,0:0:0:0:
384,64,97141,2,0,B|348:75|309:60|309:60|274:47|228:56,1,150,0|4,0:0|0:3,0:0:0:0:
164,96,98141,1,8,0:0:0:0:
124,168,98474,2,0,L|140:324,1,150,2|0,0:0|0:0,0:0:0:0:
212,356,99474,1,8,0:0:0:0:
284,316,99807,2,0,B|312:305|342:306|368:316,1,75,0|0,0:0|0:0,0:0:0:0:
436,344,100474,1,8,0:0:0:0:
508,304,100807,1,8,0:0:0:0:
464,144,101474,5,4,0:3:0:0:
384,156,101807,2,0,B|353:153|328:136|312:112,1,75,0|8,0:0|0:0,0:0:0:0:
252,76,102474,2,0,B|208:42|148:45|109:79,1,150,0|4,0:0|0:3,0:0:0:0:
60,140,103474,1,8,0:0:0:0:
108,208,103807,2,0,B|126:229|112:284|112:284|97:331|120:376,1,150,2|0,0:0|0:0,0:0:0:0:
195,355,104807,2,0,L|355:347,1,150,8|0,0:0|0:0,0:0:0:0:
408,292,105807,2,0,B|421:264|418:233|404:208,1,75,8|8,0:0|0:0,0:0:0:0:
356,156,106474,1,2,0:0:0:0:
276,180,106807,6,0,B|234:199|185:185|157:149|152:109,1,150,4|8,3:1|0:0,0:0:0:0:
112,56,107807,2,0,L|100:208,1,150,0|4,0:0|0:3,0:0:0:0:
160,264,108807,1,8,0:0:0:0:
236,232,109141,1,2,0:0:0:0:
292,292,109474,2,0,B|327:321|375:322|413:299|432:265,1,150,4|8,3:1|0:0,0:0:0:0:
464,200,110474,2,0,B|469:167|461:136|444:112,1,75,0|0,0:0|0:0,0:0:0:0:
372,108,111141,2,0,B|350:93|334:72|326:49,1,75,8|8,0:0|0:0,0:0:0:0:
244,36,111807,1,2,0:0:0:0:
168,68,112141,5,4,3:1:0:0:
154,149,112474,2,0,B|138:173|114:188|89:193,1,75,0|8,0:0|0:0,0:0:0:0:
12,196,113141,2,0,B|67:197|109:246|104:299,1,150,0|4,0:0|0:3,0:0:0:0:
181,328,114141,1,8,0:0:0:0:
256,292,114474,2,0,B|253:238|296:194|347:193,1,150,2|0,0:0|0:0,0:0:0:0:
424,228,115474,1,8,0:0:0:0:
492,180,115807,2,0,B|504:144|492:104|492:104|476:53|492:24,1,150,0|8,0:0|0:0,0:0:0:0:
405,29,116807,2,0,B|376:25|348:30|324:41,1,75,8|2,0:0|0:0,0:0:0:0:
260,80,117474,6,0,L|172:76,2,75,4|0|8,3:1|0:0|0:0,0:0:0:0:
328,124,118474,1,0,0:0:0:0:
336,204,118807,2,0,B|324:248|282:275|237:272|205:249,1,150,0|8,0:0|0:0,0:0:0:0:
148,208,119807,1,2,0:0:0:0:
96,144,120141,2,0,L|84:296,1,150,4|8,3:1|0:0,0:0:0:0:
148,348,121141,1,0,0:0:0:0:
224,320,121474,2,0,B|252:313|280:315|305:324,1,75,0|8,0:0|0:0,0:0:0:0:
376,348,122141,2,0,B|402:356|427:356|451:350,1,75,8|2,0:0|0:0,0:0:0:0:
504,288,122807,6,0,L|508:136,1,150,4|8,3:1|0:0,0:0:0:0:
448,80,123807,2,0,B|403:43|341:44|297:75,1,150,0|4,0:0|0:3,0:0:0:0:
244,120,124807,1,8,0:0:0:0:
180,172,125141,2,0,B|133:208|69:203|29:165,1,150,2|0,0:0|0:0,0:0:0:0:
12,96,126141,1,8,0:0:0:0:
64,32,126474,2,0,L|144:28,1,75,0|0,0:0|0:0,0:0:0:0:
212,64,127141,2,0,L|296:68,1,75,8|8,0:0|0:0,0:0:0:0:
340,132,127807,1,0,0:0:0:0:
256,192,128141,12,0,130807,0:0:0:0:
